Lukas LK-7200 CUTY review

Features

  • support SD up to 128GB (I don’t have any bigger one to test)
  • 720p, 1080p
  • ไม่มีจอ มีแต่เสียง
  • GPS built-in
  • accelerometer built-in
  • microphone
  • Power Input: 9V-28V :exclamation:
  • ใส่ polarizer filter ได้ถ้าไม่ชอบสว่าง
  • วัด voltage ให้ (คิดว่า ต่อจากรถก็จะได้ voltage ของ battery รถ)

สิ่งที่น่าสนใจ

  • ตั้งค่าที่ 720p 24fps จะได้ 20MB/min ซึ่งก็ได้ประมาณว่า 1.2GB ต่อ ชม.

  • มีโปรแกรมดูซึ่งพิเศษกว่า video player ทั่วไป คือ มี map ข้างๆด้วย download ได้ที่นี่ มีทั้ง macOS และ Windows

  • รายละเอียดข้อมูล video ที่ได้จากกล้อง

      Input #0, avi, from 'alwa_20161012_104722.avi':
        Metadata:
          encoder         : BlackBOX v2.
          comment         : Qrontech BlackBox Solution
        Duration: 00:02:59.96, start: 0.000000, bitrate: 2671 kb/s
          Stream #0:0: Video: h264 (High) (H264 / 0x34363248), yuvj420p(pc), 1280x720, 2401 kb/s, 24.01 fps, 24 tbr, 24.01 tbn, 30 tbc
          Stream #0:1: Audio: pcm_s16le ([1][0][0][0] / 0x0001), 16000 Hz, 1 channels, s16, 256 kb/s